BREAKS AND BASS

DJ J Stan

It's the funkiest podcast on the planet and it's free.  DJ J STAN'S 'BREAKS AND BASS' featuring the hottest breaks, breakstep, breakbeat, and bass tracks on the planet.

read less

BREAKS AND BASS, SHOW SIXTEEN
Nov 8 2022
BREAKS AND BASS, SHOW SIXTEEN
Dj J Stan's Breaks and Bass podcast https://DjJStan.com SHOW SIXTEEN TRACKLIST  TRACK 01 AUDIO     TITLE "Supersonic Boom"     PERFORMER "Bros Of Funk"     INDEX 01 00:00:00   TRACK 02 AUDIO     TITLE "Everybody's Free (Paul Oakenfold Nu Rave Remix)"     PERFORMER "Rozalla, Oakenfold"     INDEX 01 03:35:00   TRACK 03 AUDIO     TITLE "Give it what chu Got"     PERFORMER "Analog Hustlers"     INDEX 01 05:09:00   TRACK 04 AUDIO     TITLE "Leave Those Kids Alone"     PERFORMER "Brothers of Funk feat. Carlos Galavis"     INDEX 01 08:48:00   TRACK 05 AUDIO     TITLE "Rave I Didn't Know Was The Last"     PERFORMER "Bop & Subwave"     INDEX 01 12:16:00   TRACK 06 AUDIO     TITLE "Street Knowledge"     PERFORMER "Dismantle"     INDEX 01 15:05:00   TRACK 07 AUDIO     TITLE "On A Mission"     PERFORMER "Analog Hustlers, Bros of Funk"     INDEX 01 18:03:00     TRACK 08 AUDIO     TITLE "It's a Vibe"     PERFORMER "The Incredible Melting Man feat. Kerry Nation"     INDEX 01 22:03:00   TRACK 09 AUDIO     TITLE "Stay (Bear Moss Remix)"     PERFORMER "BEAR MOSS w/ PHLIPSYDE"     INDEX 01 23:46:00   TRACK 10 AUDIO     TITLE "Echo Chamber (Hankook & Perfect Kombo Remix)"     PERFORMER "The Darrow Chem Syndicate"     INDEX 01 27:59:00   TRACK 11 AUDIO     TITLE "Horizon (FutureMade Remix)"     PERFORMER "Crozford"     INDEX 01 31:54:00   TRACK 12 AUDIO     TITLE "The Night (Breakzmix)"     PERFORMER "Röyksopp & Alison Goldfrapp"     INDEX 01 35:50:00   TRACK 13 AUDIO     TITLE "Sweet Sensation (Origin8a and Propa Remix)"     PERFORMER "Shades of Rhythm"     INDEX 01 40:27:00