First Up Radio 07/31/22

First Up Radio Podcast

Jul 31 2022 • 32 mins

www.facebook.com/TonkaTheDJ www.twitter.com/djtonkatoy www.instagram.com/tonkathedj #LLBossHogg

TRACK 01 AUDIO     TITLE "I Had"     PERFORMER "Unfoonk feat. Gunna"     INDEX 01 00:00:00   TRACK 02 AUDIO     TITLE "HOLD THAT HEAT MIKE DEAN MIX SUPER CLEAN RADIO ONLY (Super Clean (Radio Only))"     PERFORMER ""     INDEX 01 01:33:00   TRACK 03 AUDIO     TITLE "Hall of Fame Clean"     PERFORMER "Young Dolph"     INDEX 01 03:09:00   TRACK 04 AUDIO     TITLE "Never Sleep (feat. Travis Scott)"     PERFORMER "NAV & Lil Baby feat. Travis Scott"     INDEX 01 05:47:00   TRACK 05 AUDIO     TITLE "Major Payne"     PERFORMER "10Percent, Moneybagg Yo & CMG The Label"     INDEX 01 07:27:00   TRACK 06 AUDIO     TITLE "BIG PURR (Prrdd) (feat. Pooh Shiesty)"     PERFORMER "Coi Leray feat. Pooh Shiesty"     INDEX 01 09:03:00   TRACK 07 AUDIO     TITLE "See Wat I’m Sayin"     PERFORMER "Moneybagg Yo & CMG The Label"     INDEX 01 10:01:00   TRACK 08 AUDIO     TITLE "Doe Boy"     PERFORMER "FRONT DOOR [Clean]"     INDEX 01 11:11:00   TRACK 09 AUDIO     TITLE "Water"     PERFORMER "Bankroll Freddie & Young Dolph"     INDEX 01 13:02:00   TRACK 10 AUDIO     TITLE "Doe Boy"     PERFORMER "PEP IN MY STEP [Clean]"     INDEX 01 14:48:00   TRACK 11 AUDIO     TITLE "Rowdy Vs Rebel (Clean) 16 Bar Intro (Clean)"     PERFORMER ""Rowdy Rebel""     INDEX 01 15:48:00   TRACK 12 AUDIO     TITLE "Us vs. Them"     PERFORMER "Quavo, Takeoff & Gucci Mane"     INDEX 01 17:36:00   TRACK 13 AUDIO     TITLE "It's Givin"     PERFORMER "Latto"     INDEX 01 18:58:00   TRACK 14 AUDIO     TITLE "Holy Spirit"     PERFORMER "K Camp"     INDEX 01 21:35:00   TRACK 15 AUDIO     TITLE "Sleazy Flow (Clean)"     PERFORMER "SleazyWorld Go"     INDEX 01 23:40:00   TRACK 16 AUDIO     TITLE "Fuck It"     PERFORMER "YFN Lucci feat. Jackboy"     INDEX 01 24:59:00   TRACK 17 AUDIO     TITLE "Real Ones"     PERFORMER "Skooly"     INDEX 01 27:34:00   TRACK 18 AUDIO     TITLE "Ribbon In The Sky"     PERFORMER "Rod Wave"     INDEX 01 28:48:00   TRACK 19 AUDIO     TITLE "Letter To Dolph"     PERFORMER "Bankroll Freddie"     INDEX 01 30:10:00